img image001 image001 image001 image001 image001 image001 image001 image001 image001 image001 image001 image001 image001 image001 image001

Planets Sun Sun Sun
Статистика раздачи
Автор: Снежана | Размер: 6.74 ГБ | Добавлен: 17 мар 2018
Раздают: 29    Качают: 6
Скачать торрент
Скачать торрент
Описание торрента

СообщениеДобавлено: 17 мар 2018 

Золотая орда (1-8 серии из 16)

Перевод: Не требуется
Субтитры: отсутствуют
Формат: HDTVRip-AVC, MKV, H.264, AC3
Страна: Россия
Режиссер: Тимур Алпатов
Жанр: мелодрама, драма, приключения, история
Всего серий: 16
Продолжительность: 8 х ~ 00:51:00
Год выпуска: 2018

В ролях: Юлия Пересильд, Светлана Колпакова, Александр Устюгов, Рамиль Сабитов, Сабина Ахмедова, Санжар Мади, Сергей Пускепалис, Артур Иванов, Аружан Джазильбекова, Дина Тасбулатова, Евгения Дмитриева, Лариса Домаскина, Сергей Соцердотский, Борис Каморзин, Владимир Верёвочкин, Сергей Гурьев, Юрий Тарасов, Даулет Абдыгапаров, Нафиса Хайруллина, Эльмира Калимуллина, Виктор Немец, Сейдулла Молдаханов, Турар Мураталиев, Карина Андоленко, Андрей Удалов, Анна Скиданова, Аскар Ильясов, Феруза Рузиева, Дилия Рузиева, Василий Бочкарёв, Александр Ким

Описание: Конец XIII-го века. В столицу Руси прибывает посланник Золотой Орды – Менгу-Темир, красавец и ценитель женской красоты. Он приехал, чтобы угнать в Орду тысячи русских воинов, но готов довольствоваться лишь частью, если Великий князь Ярослав отдаст княгиню Устинью, жену его брата Бориса. Ярослав не готов нарушить законы Веры и Чести, но Борис сам идет на этот шаг, надеясь, что эта жертва обеспечит ему княжеский престол. Устинья с караваном отправляется на чужбину. Менгу оставляет Ярославу «подарок» от Великого хана – юную Наргиз, которая пробуждает князя к жизни и ставит его перед роковым выбором. На одной чаше весов – любовь и страсть, на другой – престол и жизнь самой Наргиз, которую не принимает ни народ, ни законная жена Ярослава.



Видео: 1024x576 (16:9), 25,000 fps, MPEG4 AVC (x264), ~2000 Kbps avg, 0.136 bit/pixel
Аудио: 48 kHz, AC3, 6 ch ~ 384 Kbps


Общее
Уникальный идентификатор : 171210921871233256589793215478506931611 (0x80CE062CFA1F49D59D1CE3A24CD3459B)
Полное имя : D:\КАДИРОВКА\zolotaja_orda_[tfile.me]\zolotaja_orda_[tfile.me]_e01.mkv
Формат : Matroska
Версия формата : Version 2
Размер файла : 868 Мбайт
Продолжительность : 51 м. 7 с.
Общий поток : 2375 Кбит/сек
Название фильма : zolotaja_orda_[tfile.me]
Дата кодирования : UTC 2018-03-12 19:00:54
Программа кодирования : mkvmerge v4.0.0 ('The Stars were mine') сборка от Jun 6 2010 16:18:42
Библиотека кодирования : libebml v1.0.0 + libmatroska v1.0.0
Обложка : Yes
Attachments : cover.jpg

Видео
Идентификатор : 1
Формат : AVC
Формат/Информация : Advanced Video Codec
Профиль формата :
Параметр CABAC формата : Да
Параметр ReFrames формата : 6 кадров
Идентификатор кодека : V_MPEG4/ISO/AVC
Продолжительность : 51 м. 7 с.
Битрейт : 2000 Кбит/сек
Ширина : 1024 пикселя
Высота : 576 пикселей
Соотношение сторон : 16:9
Режим частоты кадров : Постоянный
Частота кадров : 25,000 кадров/сек
Цветовое пространство : YUV
Субдискретизация насыщенности : 4:2:0
Битовая глубина : 8 бит
Тип развёртки : Прогрессивная
Бит/(Пиксели*Кадры) : 0.136
Размер потока : 711 Мбайт (82%)
Библиотека кодирования : x264 core 146 r2538 121396c
Настройки программы : cabac=1 / ref=6 / deblock=1:-1:-1 / analyse=0x3:0x133 / me=umh / subme=10 / psy=1 / psy_rd=1.00:0.15 / mixed_ref=1 / me_range=24 / chroma_me=1 / trellis=2 / 8x8dct=1 / cqm=0 / deadzone=21,11 / fast_pskip=0 / chroma_qp_offset=-3 / threads=12 / lookahead_threads=1 / sliced_threads=0 / nr=0 / decimate=1 / interlaced=0 / bluray_compat=0 / constrained_intra=0 / bframes=3 / b_pyramid=2 / b_adapt=2 / b_bias=0 / direct=1 / weightb=1 / open_gop=0 / weightp=2 / keyint=250 / keyint_min=25 / scenecut=40 / intra_refresh=0 / rc_lookahead=50 / rc=abr / mbtree=1 / bitrate=2000 / ratetol=1.0 / qcomp=0.69 / qpmin=0 / qpmax=69 / qpstep=4 / ip_ratio=1.40 / aq=1:1.00
Default : Нет
Forced : Нет

Аудио
Идентификатор : 2
Формат : AC-3
Формат/Информация : Audio Coding 3
Расширение режима : CM (complete main)
Параметр Endianness формата : Big
Идентификатор кодека : A_AC3
Продолжительность : 51 м. 7 с.
Вид битрейта : Постоянный
Битрейт : 384 Кбит/сек
Каналы : 6 каналов
Расположение каналов : Front: L C R, Side: L R, LFE
Частота : 48,0 КГц
Частота кадров : 31,250 кадров/сек (1536 spf)
Битовая глубина : 16 бит
Метод сжатия : С потерями
Размер потока : 140 Мбайт (16%)
Default : Нет
Forced : Нет







Внимание! Раздача ведётся путём добавления новых серий; при каждом добавлении создётся новый торрент. Чтобы начать докачку новой серии, пользователям необходимо сделать следующее:
(1) остановить скачивание,
(2) удалить старый торрент у себя из клиента (старые серии удалять не надо),
(3) скачать новый торрент и запустить его у себя в клиенте вместо старого, при этом указать клиенту путь в старую папку куда и должно происходить скачивание новых серий.

Ваш клиент при этом должен произвести хеширование (проверку) старой папки (если не производит сам - помогите ему сделать это), и будет докачивать только те серии которых у вас ещё нет. Старые серии при этом не удаляются, а продолжают раздаваться!

Eсли вы уже удалили старые серии, то предотвратить повторную закачку старых серий можно, отжав галочку в соответсвующих местах при запуске нового торрента. По возможности, желательно не удалять старые серии как можно дольше чтобы релизёр не столько продолжал раздавать старые серии, а смог сконцентрироваться на новых.



Релиз от:

Релиз предоставлен сайтом tfile.me!!



   Похожие торренты   Торрент   Размер 
В этой теме нет новых непрочитанных сообщений. Золотая орда (1-14 серии из 16) (Тимур Алпатов) [2018, мелодрама, драма, приключения, история, HDTVRip-AVC]

0 | 7

11.7 ГБ

В этой теме нет новых непрочитанных сообщений. Золотая орда (1-12 серии из 16) (Тимур Алпатов) [2018, мелодрама, драма, приключения, история, HDTVRip-AVC]

2 | 7

10.06 ГБ

В этой теме нет новых непрочитанных сообщений. Золотая орда (1-16 серии из 16) (Тимур Алпатов) [2018, мелодрама, драма, приключения, история, HDTVRip-AVC]

96 | 4

13.38 ГБ

В этой теме нет новых непрочитанных сообщений. Золотая орда (1-16 серии из 16) (Тимур Алпатов) [2018, мелодрама, драма, приключения, история, HDTVRip]

244 | 52

11.26 ГБ

В этой теме нет новых непрочитанных сообщений. Золотая орда (1-10 серии из 16) (Тимур Алпатов) [2018, мелодрама, драма, приключения, история, HDTVRip]

112 | 57

7.06 ГБ

В этой теме нет новых непрочитанных сообщений. Золотая орда (1-10 серии из 16) (Тимур Алпатов) [2018, мелодрама, драма, приключения, история, HDTVRip-AVC]

10 | 2

8.41 ГБ

В этой теме нет новых непрочитанных сообщений. Золотая орда (1-12 серии из 16) (Тимур Алпатов) [2018, мелодрама, драма, приключения, история, HDTVRip]

120 | 176

8.46 ГБ




Вы не можете начинать темы
Вы не можете отвечать на сообщения
Вы не можете редактировать свои сообщения
Вы не можете удалять свои сообщения
Вы не можете добавлять вложения

Перейти:  
 Вход
ppkBB3cker v.2 © 2008-2014 @ PPK
[ Time : 0.041s | 15 Queries | GZIP : Off ]

cron