img image001 image001 image001 image001 image001 image001 image001 image001 image001 image001 image001 image001 image001 image001 image001

Planets Sun Sun Sun
Статистика раздачи
Автор: Снежана | Размер: 9.53 ГБ | Добавлен: 23 июл 2013
Раздают: 1    Качают: 2
Скачать торрент
Скачать торрент
Описание торрента

СообщениеДобавлено: 23 июл 2013 

#77
Информация о фильме
Название: Восхождение пехотинца
Оригинальное название: Rise of the Footsoldier
Год выхода: 2007
Жанр: Драма, криминал, биография
Режиссер: Джулиан Джилби
В ролях: Риччи Харнетт, Терри Стоун, Крэйг Фэйрбрасс, Роланд Манукян, Корали Роуз, Нил Мэскелл, Билли Мюррэй, Йен Вирго, Кирстон Вэрэйнг, Патрик Режис
О фильме:
Возвышение пехотинца следует за повышением по службе Карлтона Лича от одного из генералов. Фильм рассказывает о трёх десятилетиях его жизни, когда он был футбольным хулиганом, вышибалой и о его причастности к криминальным элементам, с помошью которых он пришёл к власти.

Выпущено: Великобритания / Carnaby Films PLC, Hanover Films
Продолжительность: 01:58:56
Перевод: Профессиональный двухголосый
Файл
Кодек: MPEG-4 AVC
Качество: BDRip 1080p
Видео: 1912x1036, 24.00 fps, 10189 kbps
Звук:
Russian: AC3, 640 Kbps (6 ch) Профессиональный двухголосый
English: AC3, 640 Kbps (6 ch) Original
Субтитры: English
Семпл
Общее
Уникальный идентификатор : 182343902433911940314622706066733782090 (0x892E287EF800CAF09634F68EEE4DD44A)
Полное имя : Rise.of.the.Footsoldier.2007.х264.BDRip.1080p.mkv
Формат : Matroska
Версия формата : Version 4 / Version 2
Размер файла : 9,53 Гбайт
Продолжительность : 1 ч. 58 м.
Общий поток : 11,5 Мбит/сек
Название фильма : ☭WIDDER☭
Дата кодирования : UTC 2013-05-01 21:47:40
Программа кодирования : mkvmerge v6.2.0 ('Promised Land') built on Apr 28 2013 12:22:01
Библиотека кодирования : libebml v1.3.0 + libmatroska v1.4.0

Видео
Идентификатор : 1
Формат : AVC
Формат/Информация : Advanced Video Codec
Профиль формата : High@L4.1
Параметр CABAC формата : Да
Параметр ReFrames формата : 4 кадра
Идентификатор кодека : V_MPEG4/ISO/AVC
Продолжительность : 1 ч. 58 м.
Битрейт : 10,2 Мбит/сек
Ширина : 1912 пикселей
Высота : 1036 пикселей
Соотношение сторон : 1,85:1
Режим частоты кадров : Постоянный
Частота кадров : 24,000 кадра/сек
Цветовое пространство : YUV
Субдискретизация насыщенности : 4:2:0
Битовая глубина : 8 бит
Тип развёртки : Прогрессивная
Бит/(Пиксели*Кадры) : 0.214
Размер потока : 8,27 Гбайт (87%)
Заголовок : Восхождение пехотинца / Rise of the Footsoldier (2007)
Библиотека кодирования : x264 core 132 r2309 3b1f1f7
Настройки программы : cabac=1 / ref=4 / deblock=1:-3:-3 / analyse=0x3:0x133 / me=umh / subme=11 / psy=1 / psy_rd=1.00:0.00 / mixed_ref=1 / me_range=48 / chroma_me=1 / trellis=2 / 8x8dct=1 / cqm=0 / deadzone=21,11 / fast_pskip=0 / chroma_qp_offset=-2 / threads=12 / lookahead_threads=1 / sliced_threads=0 / nr=0 / decimate=1 / interlaced=0 / bluray_compat=0 / constrained_intra=0 / bframes=5 / b_pyramid=2 / b_adapt=2 / b_bias=0 / direct=3 / weightb=1 / open_gop=0 / weightp=2 / keyint=240 / keyint_min=24 / scenecut=40 / intra_refresh=0 / rc_lookahead=60 / rc=2pass / mbtree=0 / bitrate=10189 / ratetol=1.0 / qcomp=0.60 / qpmin=0 / qpmax=69 / qpstep=4 / cplxblur=20.0 / qblur=0.5 / vbv_maxrate=62500 / vbv_bufsize=78125 / nal_hrd=none / ip_ratio=1.40 / pb_ratio=1.30 / aq=1:1.00
Язык : English
Default : Да
Forced : Нет

Аудио #1
Идентификатор : 2
Формат : AC-3
Формат/Информация : Audio Coding 3
Расширение режима : CM (complete main)
Параметр Endianness формата : Big
Идентификатор кодека : A_AC3
Продолжительность : 1 ч. 58 м.
Вид битрейта : Постоянный
Битрейт : 640 Кбит/сек
Каналы : 6 каналов
Расположение каналов : Front: L C R, Side: L R, LFE
Частота : 48,0 КГц
Битовая глубина : 16 бит
Метод сжатия : С потерями
Размер потока : 544 Мбайт (6%)
Заголовок : AC3, 640 Kbps (6 ch) Профессиональный двухголосый
Язык : Russian
Default : Да
Forced : Нет

Аудио #2
Идентификатор : 3
Формат : AC-3
Формат/Информация : Audio Coding 3
Расширение режима : CM (complete main)
Параметр Endianness формата : Big
Идентификатор кодека : A_AC3
Продолжительность : 1 ч. 58 м.
Вид битрейта : Постоянный
Битрейт : 640 Кбит/сек
Каналы : 6 каналов
Расположение каналов : Front: L C R, Side: L R, LFE
Частота : 48,0 КГц
Битовая глубина : 16 бит
Метод сжатия : С потерями
Размер потока : 544 Мбайт (6%)
Заголовок : AC3, 640 Kbps (6 ch) Original
Язык : English
Default : Нет
Forced : Нет

Текст
Идентификатор : 4
Формат : UTF-8
Идентификатор кодека : S_TEXT/UTF8
Идентификатор кодека/Информация : UTF-8 Plain Text
Язык : English
Default : Нет
Forced : Нет

Меню
00:00:00.000 : :Chapter 01
00:14:18.416 : :Chapter 02
00:30:00.000 : :Chapter 03
00:45:00.000 : :Chapter 04
01:00:00.000 : :Chapter 05
01:15:00.000 : :Chapter 06
01:30:00.000 : :Chapter 07
01:45:00.000 : :Chapter 08
____________________________________________
x264 [info]: frame I:1237 Avg QP:15.13 size:175207
x264 [info]: frame P:53852 Avg QP:17.19 size: 76771
x264 [info]: frame B:116190 Avg QP:19.19 size: 40757




Релиз от:



   Похожие торренты   Торрент   Размер 
В этой теме нет новых непрочитанных сообщений. Восхождение Пехотинца / Rise of the Footsoldier (2007) Blu-ray 1080p

12 | 6

20.24 ГБ

В этой теме нет новых непрочитанных сообщений. Восхождение пехотинца / Rise of the Footsoldier (2007) BDRip-AVC от Rulya74 | P2

4 | 3

1.44 ГБ

В этой теме нет новых непрочитанных сообщений. Восхождение Пехотинца / Rise of the Footsoldier (2007) BDRip от HQ-ViDEO

21 | 2

2.18 ГБ

В этой теме нет новых непрочитанных сообщений. Восхождение пехотинца / Rise of the Footsoldier (2007) BDRip от HQCLUB

14 | 3

2.19 ГБ

В этой теме нет новых непрочитанных сообщений. Восхождение Пехотинца / Rise of the Footsoldier (2007) BDRip от Rulya74 | P2

63 | 6

1.43 ГБ

В этой теме нет новых непрочитанных сообщений. Восхождение пехотинца / Rise of the Footsoldier (2007) BDRip | Extended Version | А

9 | 0

2.06 ГБ

В этой теме нет новых непрочитанных сообщений. Восхождение пехотинца / Rise of the Footsoldier (2007) BDRip | Extended Version | А

9 | 0

1.45 ГБ




Вы не можете начинать темы
Вы не можете отвечать на сообщения
Вы не можете редактировать свои сообщения
Вы не можете удалять свои сообщения
Вы не можете добавлять вложения

Перейти:  
Для Мосгорсуда, Роскомнадзора и рекламодателей: mosgorsud-torrent[собачка]yandex.ru
 Вход
ppkBB3cker v.2 © 2008-2014 @ PPK
[ Time : 0.049s | 18 Queries | GZIP : Off ]

cron