img image001 image001 image001 image001 image001 image001 image001 image001 image001 image001 image001 image001 image001 image001 image001

Planets Sun Sun Sun
Статистика раздачи
Автор: Снежана | Размер: 5.27 ГБ | Добавлен: 23 июл 2013
Раздают: 0    Качают: 7
Скачать торрент
Скачать торрент
Описание торрента

СообщениеДобавлено: 23 июл 2013 

#77

Информация о фильме
Название: Детская игра
Оригинальное название: Child's Play
Год выхода: 1972
Жанр: Драма, мистика
Режиссер: Сидни Люмет / Sidney Lumet
В ролях: Бо Бриджес / Beau Bridges, Джеймс Мэйсон / James Mason, Роберт Престон / Robert Preston и др.

О фильме:
Молодой учитель физкультуры Джозеф Доббс (Бо Бриджес) устраивается на работу в частную школу для мальчиков. Вскоре он замечает, что ученики ведут себя слишком агрессивно. Их детские игры не похожи на простую забаву, а школьные розыгрыши жестоки и кровавы. Доббс и большинство преподавателей склонны думать, что виной тому является излишняя строгость и требовательность учителя латыни: ведь акты насилия происходят исключительно после его уроков над теми, кто успешно выполнил задание. Но так ли это на самом деле?

Страна: США
Студия: Paramount Pictures
Продолжительность: 01:40:22
Перевод: Профессиональный (двухголосный закадровый) НТВ+

Файл
Кодек: h.264
Качество: BDRip 720p
Видео: 1280x720 (16:9), 23.976 fps, Progressive, AVC, ~6999 Kbps, 0.317 bits/pixel
Звук:
1) Английская, 48.0 KHz, AC3, 1 ch, 384 Kbps
2) Русская 48.0 KHz, AC3, 1 ch, 128 Kbps
Субтитры: нет

Исходник BD25 от Olive Films http://www.blu-ray.com/movies/Childs-Play-Blu-ray/47234/. Звуковая дорожка синхронизирована с SATripа НТВ+, оригинальный трек DTS 768 kbps перекодирован в АС 384 kbps.


Общее
Уникальный идентификатор : 244246480187430760444129212620553083351 (0xB7C0293752BFEA06BE0CE2EABF0059D7)
Полное имя : D:FilmsDetskaya igra.1972.BDRip720p.mkv
Формат : Matroska
Версия формата : Version 4 / Version 2
Размер файла : 5,27 Гбайт
Продолжительность : 1 ч. 40 м.
Общий поток : 7511 Кбит/сек
Дата кодирования : UTC 2013-02-02 13:15:37
Программа кодирования : mkvmerge v6.0.0 ('Coming Up For Air') built on Jan 20 2013 09:52:00
Библиотека кодирования : libebml v1.3.0 + libmatroska v1.4.0

Видео
Идентификатор : 1
Формат : AVC
Формат/Информация : Advanced Video Codec
Профиль формата : High@L4.1
Параметр CABAC формата : Да
Параметр ReFrames формата : 8 кадров
Идентификатор кодека : V_MPEG4/ISO/AVC
Продолжительность : 1 ч. 40 м.
Битрейт : 6999 Кбит/сек
Ширина : 1280 пикселей
Высота : 720 пикселей
Соотношение сторон : 16:9
Режим частоты кадров : Постоянный
Частота кадров : 23,976 кадра/сек
Цветовое пространство : YUV
Субдискретизация насыщенности : 4:2:0
Битовая глубина : 8 бит
Тип развёртки : Прогрессивная
Бит/(Пиксели*Кадры) : 0.317
Размер потока : 4,80 Гбайт (91%)
Библиотека кодирования : x264 core 129 r2230 1cffe9f
Настройки программы : cabac=1 / ref=8 / deblock=1:0:0 / analyse=0x3:0x133 / me=umh / subme=9 / psy=1 / psy_rd=1.00:0.15 / mixed_ref=1 / me_range=16 / chroma_me=1 / trellis=2 / 8x8dct=1 / cqm=0 / deadzone=21,11 / fast_pskip=1 / chroma_qp_offset=-3 / threads=12 / lookahead_threads=2 / sliced_threads=0 / nr=0 / decimate=1 / interlaced=0 / bluray_compat=0 / constrained_intra=0 / bframes=3 / b_pyramid=2 / b_adapt=2 / b_bias=0 / direct=3 / weightb=1 / open_gop=0 / weightp=2 / keyint=240 / keyint_min=23 / scenecut=40 / intra_refresh=0 / rc_lookahead=60 / rc=2pass / mbtree=1 / bitrate=6999 / ratetol=1.0 / qcomp=0.60 / qpmin=0 / qpmax=69 / qpstep=4 / cplxblur=20.0 / qblur=0.5 / ip_ratio=1.40 / aq=1:1.00
Default : Нет
Forced : Нет
Основные цвета : BT.709
Характеристики трансфера : BT.709
Коэффициенты матрицы : BT.709

Аудио #1
Идентификатор : 2
Формат : AC-3
Формат/Информация : Audio Coding 3
Расширение режима : CM (complete main)
Параметр Endianness формата : Big
Идентификатор кодека : A_AC3
Продолжительность : 1 ч. 40 м.
Вид битрейта : Постоянный
Битрейт : 384 Кбит/сек
Каналы : 1 канал
Расположение каналов : Front: C
Частота : 48,0 КГц
Битовая глубина : 16 бит
Метод сжатия : С потерями
Размер потока : 276 Мбайт (5%)
Язык : English
Default : Нет
Forced : Нет

Аудио #2
Идентификатор : 3
Формат : AC-3
Формат/Информация : Audio Coding 3
Расширение режима : CM (complete main)
Параметр Endianness формата : Big
Идентификатор кодека : A_AC3
Продолжительность : 1 ч. 40 м.
Вид битрейта : Постоянный
Битрейт : 128 Кбит/сек
Каналы : 1 канал
Расположение каналов : Front: C
Частота : 48,0 КГц
Битовая глубина : 16 бит
Метод сжатия : С потерями
Размер потока : 91,9 Мбайт (2%)
Язык : Russian
Default : Да
Forced : Нет

Меню
00:00:00.000 : en:Chapter 01
00:11:24.266 : en:Chapter 02
00:23:01.171 : en:Chapter 03
00:35:57.029 : en:Chapter 04
00:47:26.385 : en:Chapter 05
00:55:21.276 : en:Chapter 06
01:11:48.220 : en:Chapter 07
01:25:34.587 : en:Chapter 08
01:40:20.139 : en:Chapter 09

Семпл

BDRip 720p

Source BD 1080p Olive Films


Релиз от: Temperest



   Похожие торренты   Торрент   Размер 
В этой теме нет новых непрочитанных сообщений. Детская игра / Child's Play (1972) BDRip 720p от Temperest

33 | 10

4.02 ГБ

В этой теме нет новых непрочитанных сообщений. Детские игры 2 / Детская игра 2 / Child's Play 2 (1990) HDTVRip-AVC 720p от HAZARD'A

2 | 2

2.64 ГБ

В этой теме нет новых непрочитанных сообщений. Чаки: Детская игра / Child's Play (1988) DVDRip

8 | 48

668.06 МБ

В этой теме нет новых непрочитанных сообщений. Чаки: Детская игра 3 / Child's Play 3 Look Who`s Stalking (1991) DVDRip

6 | 45

701.61 МБ

В этой теме нет новых непрочитанных сообщений. Чаки: Детская игра 2 / Child's Play 2 Chucky's Back (1990) DVDRip

10 | 44

685.11 МБ

В этой теме нет новых непрочитанных сообщений. Чаки: Детская игра / Child's Play (Антология) (1988-2004) DVDRip

59 | 48

3.53 ГБ

В этой теме нет новых непрочитанных сообщений. Детские игры 2 / Child’s Play 2 (1990) BDRip 720p | P1, A

5 | 7

2.83 ГБ




Вы не можете начинать темы
Вы не можете отвечать на сообщения
Вы не можете редактировать свои сообщения
Вы не можете удалять свои сообщения
Вы не можете добавлять вложения

Перейти:  
Для Мосгорсуда, Роскомнадзора и рекламодателей: mosgorsud-torrent[собачка]yandex.ru
 Вход
ppkBB3cker v.2 © 2008-2014 @ PPK
[ Time : 0.052s | 18 Queries | GZIP : Off ]

cron