img image001 image001 image001 image001 image001 image001 image001 image001 image001 image001 image001 image001 image001 image001 image001

Planets Sun Sun Sun
Статистика раздачи
Автор: Снежана | Размер: 4.71 ГБ | Добавлен: 21 июл 2013
Раздают: 21    Качают: 5
Скачать торрент
Скачать торрент
Описание торрента

СообщениеДобавлено: 21 июл 2013 

#77

Выпущено: США, New Line Cinema
Жанр: комедия, приключения
Год выпуска: 2008
Продолжительность: 01:47:42


Перевод: Профессиональный (многоголосый)
Cубтитры: русские, английские


Режиссер: Джон Харвитц, Хейден Шлоссберг
В ролях: Джон Чо, Кэл Пенн, Роб Кордри, Джек Конли, Роджер Барт, Нил Патрик Харрис, Дэннил Эклс, Эрик Винтер, Паула Гарсес, Джон Рип


О фильме: Гарольд и Кумар рассчитывают весело провести каникулы в Амстердаме и вдоволь порасширять сознание, однако чересчур бдительные попутчики принимают друзей за террористов... Парочка бежит по всей стране от властей, которые подозревает в двух обкурышах террористов после того, как те безуспешно пытались протащить на самолёт, летящий в Амстердам, кальян для курения травки… Серьёзно, зачем в Амстердаме ещё один кальян?!





Формат: MKV (x264)
Качество: BDRip 720p [WiKi]
Видео: 4300 kb/s, 1280x688, 23.976 fps, 1.860:1
Аудио #1: AC3, 448 kb/s, 6 ch, 48 КГц, 16 бит [Проф. многоголосый]
Аудио #2: DTS, 1536 kb/s, 6 ch, 48 КГц, 24 бит [Оригинал]

Цитатаalmetyevec писал:
Выражаю благодарность:
-DaRkY- за русскую аудиодорогу.

Формат : Matroska
Версия формата : Version 2
Размер файла : 4,71 Гбайт
Продолжительность : 1 ч. 47 м.
Общий поток : 6259 Кбит/сек
Дата кодирования : UTC 2012-01-30 15:44:49
Программа кодирования : mkvmerge v5.2.1 ('A Far Off Place') built on Jan 2 2012 23:21:10
Библиотека кодирования : libebml v1.2.3 + libmatroska v1.3.0

Видео
Идентификатор : 1
Формат : AVC
Формат/Информация : Advanced Video Codec
Профиль формата : High@L5.1
Параметр CABAC формата : Да
Параметр ReFrames формата : 9 кадров
Параметр GOP формата : N=1
Идентификатор кодека : V_MPEG4/ISO/AVC
Продолжительность : 1 ч. 47 м.
Битрейт : 4300 Кбит/сек
Ширина : 1280 пикселей
Высота : 688 пикселей
Соотношение сторон : 1,860
Частота кадров : 23,976 кадра/сек
Цветовое пространство : YUV
Субдискретизация насыщенности : 4:2:0
Битовая глубина : 8 бит
Тип развёртки : Прогрессивная
Бит/(Пиксели*Кадры) : 0.204
Размер потока : 3,14 Гбайт (67%)
Библиотека кодирования : x264 core 61 r938M 9881ffd
Настройки программы : cabac=1 / ref=9 / deblock=1:-2:-1 / analyse=0x3:0x113 / me=umh / subme=6 / psy_rd=1.0:1.0 / brdo=1 / mixed_ref=1 / me_range=16 / chroma_me=1 / trellis=1 / 8x8dct=1 / cqm=0 / deadzone=21,11 / chroma_qp_offset=-4 / threads=4 / nr=0 / decimate=1 / mbaff=0 / bframes=16 / b_pyramid=1 / b_adapt=1 / b_bias=0 / direct=3 / wpredb=1 / bime=1 / keyint=250 / keyint_min=25 / scenecut=40(pre) / rc=2pass / bitrate=4300 / ratetol=1.0 / rceq='blurCplx^(1-qComp)' / qcomp=1.00 / qpmin=10 / qpmax=51 / qpstep=4 / cplxblur=20.0 / qblur=0.5 / ip_ratio=1.40 / pb_ratio=1.30 / aq=2:1.00
Язык : English
Default : Да
Forced : Нет

Аудио #1
Идентификатор : 2
Формат : AC-3
Формат/Информация : Audio Coding 3
Расширение режима : CM (complete main)
Идентификатор кодека : A_AC3
Продолжительность : 1 ч. 47 м.
Вид битрейта : Постоянный
Битрейт : 448 Кбит/сек
Каналы : 6 каналов
Расположение каналов : Front: L C R, Side: L R, LFE
Частота : 48,0 КГц
Битовая глубина : 16 бит
Метод сжатия : С потерями
Размер потока : 345 Мбайт (7%)
Заголовок : Проф. многоголосый
Язык : Russian
Default : Да
Forced : Нет

Аудио #2
Идентификатор : 3
Формат : DTS
Формат/Информация : Digital Theater Systems
Идентификатор кодека : A_DTS
Продолжительность : 1 ч. 47 м.
Вид битрейта : Постоянный
Битрейт : 1510 Кбит/сек
Каналы : 6 каналов
Расположение каналов : Front: L C R, Side: L R, LFE
Частота : 48,0 КГц
Битовая глубина : 24 бит
Метод сжатия : С потерями
Размер потока : 1,14 Гбайт (24%)
Язык : English
Default : Нет
Forced : Нет

Текст #1
Идентификатор : 4
Формат : UTF-8
Идентификатор кодека : S_TEXT/UTF8
Идентификатор кодека/Информация : UTF-8 Plain Text
Язык : Russian
Default : Да
Forced : Нет

Текст #2
Идентификатор : 5
Формат : UTF-8
Идентификатор кодека : S_TEXT/UTF8
Идентификатор кодека/Информация : UTF-8 Plain Text
Язык : English
Default : Нет
Forced : Нет



   Похожие торренты   Торрент   Размер 
В этой теме нет новых непрочитанных сообщений. Гарольд и Кумар 2: Побег из Гуантанамо / Harold & Kumar Escape from Guantanamo Bay (2008) BDRip от HQCLUB | Unrated

110 | 6

2.18 ГБ

В этой теме нет новых непрочитанных сообщений. Гарольд и Кумар 2: Побег из Гуантанамо / Harold & Kumar Escape from Guantanamo Bay (2008) HDRip | Unrated

66 | 5

1.46 ГБ

В этой теме нет новых непрочитанных сообщений. Гарольд и Кумар: Побег из Гуантанамо / Harold & Kumar Escape from Guantanamo Bay (2008) HDRip от Scarabey | Расширенная версия

42 | 5

749.68 МБ

В этой теме нет новых непрочитанных сообщений. Гарольд и Кумар: Побег из Гуантанамо / Harold & Kumar Escape from Guantanamo Bay (2008) HDRip от Scarabey | Расширенная версия

130 | 10

1.45 ГБ

В этой теме нет новых непрочитанных сообщений. Гарольд и Кумар 2 / Harold & Kumar Escape from Guantanamo Bay (2008) BDRip 720p от CGInfo | Unrated

3 | 5

4.34 ГБ

В этой теме нет новых непрочитанных сообщений. Гарольд и Кумар 2 / Harold & Kumar Escape from Guantanamo Bay (2008) BDRip от HQ-ViDEO | Unrated

0 | 2

2.18 ГБ

В этой теме нет новых непрочитанных сообщений. Гарольд и Кумар 2 / Harold & Kumar Escape from Guantanamo Bay (2008) DVDRip

0 | 3

1.37 ГБ




Вы не можете начинать темы
Вы не можете отвечать на сообщения
Вы не можете редактировать свои сообщения
Вы не можете удалять свои сообщения
Вы не можете добавлять вложения

Перейти:  
Для Мосгорсуда, Роскомнадзора и рекламодателей: mosgorsud-torrent[собачка]yandex.ru
 Вход
ppkBB3cker v.2 © 2008-2014 @ PPK
[ Time : 0.053s | 18 Queries | GZIP : Off ]

cron