img image001 image001 image001 image001 image001 image001 image001 image001 image001 image001 image001 image001 image001 image001 image001 image001
Planets Sun Sun Sun
Статистика раздачи
Автор: Снежана | Размер: 5.6 ГБ | Добавлен: 21 июл 2013
Раздают: 15    Качают: 3
Скачать торрент
Скачать торрент
Описание торрента

СообщениеДобавлено: 21 июл 2013 

#77

Выпущено: США, Германия, Канада / New Line Cinema
Жанр: комедия, приключения
Год выпуска: 2004
Продолжительность: 01:28:23


Перевод: Профессиональный (полное дублирование)
Cубтитры: русские (на непереведённые моменты), русские, английские


Режиссер: Дэнни Лейнер
В ролях: Джон Чо, Кэл Пенн, Итэн Эмбри, Роберт Тинклер, Фред Уиллард, Стив Браун, Дэн Бочарт, Паула Гарсес, Майк Шир, Кристофер Томпсон


О фильме: То, что Гарольд и Кумар разные, видно сразу, но при этом они как-то уживаются в одной квартире! И вот однажды, выкурив по сигаретке и забыв невзгоды, друзья решают оттянуться гамбургерами... Свою поездку они запомнили навсегда! Взяв старт, приятели окунаются в такой круговорот событий, что не успевают осознать происходящее! Ночная чехарда не оставляет им времени на выбор. Они оторвались по полной! Хоть и не все смогли понять... Например: откуда в их местах столько диких зверей? А может, им это просто показалось?





Формат: MKV (x264)
Качество: BDRip 720p [WiKi]
Видео: 5571 kb/s, 1280x688, 23.976 fps, 1.860:1
Аудио #1: AC3, 384 kb/s, 6 ch, 48 КГц, 16 бит [Дубляж]
Аудио #2: AC3, 384 kb/s, 6 ch, 48 КГц, 16 бит [Проф. многоголосый]
Аудио #3: AC3, 192 kb/s, 2 ch, 48 КГц, 16 бит [Автор. одноголосый, А. Карповский]
Аудио #4: AC3, 640 kb/s, 6 ch, 48 КГц, 16 бит [Проф. многоголосый, Новий канал - украинский]
Аудио #5: AC3, 384 kb/s, 6 ch, 48 КГц, 16 бит [Проф. многоголосый, 1+1 - украинский]
Аудио #6: DTS-ES, 1536 kb/s, 6 ch, 48 КГц, 24 бит [Оригинал]

Цитатаalmetyevec писал:
Выражаю благодарность:
-DaRkY- за русские сабы на непереведённые места.
pyha за русские аудиодороги.
Прагматик-у за украинские аудиодороги.
Премия канала «MTV», 2005 год


Номинации (2):
* Лучшее музыкальное выступление (Джон Чо, Кэл Пенн)
* Лучшая экранная команда (Джон Чо, Кэл Пенн)
Формат : Matroska
Версия формата : Version 2
Размер файла : 5,60 Гбайт
Продолжительность : 1 ч. 28 м.
Общий поток : 9068 Кбит/сек
Дата кодирования : UTC 2012-01-30 08:43:34
Программа кодирования : mkvmerge v5.2.1 ('A Far Off Place') built on Jan 2 2012 23:21:10
Библиотека кодирования : libebml v1.2.3 + libmatroska v1.3.0

Видео
Идентификатор : 1
Формат : AVC
Формат/Информация : Advanced Video Codec
Профиль формата : High@L5.1
Параметр CABAC формата : Да
Параметр ReFrames формата : 9 кадров
Идентификатор кодека : V_MPEG4/ISO/AVC
Продолжительность : 1 ч. 28 м.
Битрейт : 5571 Кбит/сек
Ширина : 1280 пикселей
Высота : 688 пикселей
Соотношение сторон : 1,860
Частота кадров : 23,976 кадра/сек
Цветовое пространство : YUV
Субдискретизация насыщенности : 4:2:0
Битовая глубина : 8 бит
Тип развёртки : Прогрессивная
Бит/(Пиксели*Кадры) : 0.264
Размер потока : 3,33 Гбайт (59%)
Библиотека кодирования : x264 core 61 r947M af82aae
Настройки программы : cabac=1 / ref=9 / deblock=1:-2:-1 / analyse=0x3:0x113 / me=umh / subme=6 / psy_rd=1.0:1.0 / brdo=1 / mixed_ref=1 / me_range=16 / chroma_me=1 / trellis=1 / 8x8dct=1 / cqm=0 / deadzone=21,11 / chroma_qp_offset=-4 / threads=4 / nr=0 / decimate=1 / mbaff=0 / bframes=16 / b_pyramid=1 / b_adapt=1 / b_bias=0 / direct=3 / wpredb=1 / bime=1 / keyint=250 / keyint_min=25 / scenecut=40(pre) / rc=2pass / bitrate=5571 / ratetol=1.0 / rceq='blurCplx^(1-qComp)' / qcomp=1.00 / qpmin=10 / qpmax=51 / qpstep=4 / cplxblur=20.0 / qblur=0.5 / ip_ratio=1.40 / pb_ratio=1.30 / aq=2:1.00
Язык : English
Default : Да
Forced : Нет

Аудио #1
Идентификатор : 2
Формат : AC-3
Формат/Информация : Audio Coding 3
Расширение режима : CM (complete main)
Идентификатор кодека : A_AC3
Продолжительность : 1 ч. 28 м.
Вид битрейта : Постоянный
Битрейт : 384 Кбит/сек
Каналы : 6 каналов
Расположение каналов : Front: L C R, Side: L R, LFE
Частота : 48,0 КГц
Битовая глубина : 16 бит
Метод сжатия : С потерями
Размер потока : 243 Мбайт (4%)
Заголовок : Дубляж
Язык : Russian
Default : Да
Forced : Нет

Аудио #2
Идентификатор : 3
Формат : AC-3
Формат/Информация : Audio Coding 3
Расширение режима : CM (complete main)
Идентификатор кодека : A_AC3
Продолжительность : 1 ч. 28 м.
Вид битрейта : Постоянный
Битрейт : 384 Кбит/сек
Каналы : 6 каналов
Расположение каналов : Front: L C R, Side: L R, LFE
Частота : 48,0 КГц
Битовая глубина : 16 бит
Метод сжатия : С потерями
Размер потока : 243 Мбайт (4%)
Заголовок : Проф. многоголосый
Язык : Russian
Default : Нет
Forced : Нет

Аудио #3
Идентификатор : 4
Формат : AC-3
Формат/Информация : Audio Coding 3
Расширение режима : CM (complete main)
Идентификатор кодека : A_AC3
Продолжительность : 1 ч. 28 м.
Вид битрейта : Постоянный
Битрейт : 192 Кбит/сек
Каналы : 2 канала
Расположение каналов : Front: L R
Частота : 48,0 КГц
Битовая глубина : 16 бит
Метод сжатия : С потерями
Размер потока : 121 Мбайт (2%)
Заголовок : Автор. одноголосый, А. Карповский
Язык : Russian
Default : Нет
Forced : Нет

Аудио #4
Идентификатор : 5
Формат : AC-3
Формат/Информация : Audio Coding 3
Расширение режима : CM (complete main)
Идентификатор кодека : A_AC3
Продолжительность : 1 ч. 28 м.
Вид битрейта : Постоянный
Битрейт : 640 Кбит/сек
Каналы : 6 каналов
Расположение каналов : Front: L C R, Side: L R, LFE
Частота : 48,0 КГц
Битовая глубина : 16 бит
Метод сжатия : С потерями
Размер потока : 405 Мбайт (7%)
Заголовок : Проф. многоголосый, Новий канал
Язык : Ukrainian
Default : Нет
Forced : Нет

Аудио #5
Идентификатор : 6
Формат : AC-3
Формат/Информация : Audio Coding 3
Расширение режима : CM (complete main)
Идентификатор кодека : A_AC3
Продолжительность : 1 ч. 28 м.
Вид битрейта : Постоянный
Битрейт : 384 Кбит/сек
Каналы : 6 каналов
Расположение каналов : Front: L C R, Side: L R, LFE
Частота : 48,0 КГц
Битовая глубина : 16 бит
Метод сжатия : С потерями
Размер потока : 243 Мбайт (4%)
Заголовок : Проф. многоголосый, 1+1
Язык : Ukrainian
Default : Нет
Forced : Нет

Аудио #6
Идентификатор : 7
Формат : DTS
Формат/Информация : Digital Theater Systems
Профиль формата : ES
Идентификатор кодека : A_DTS
Продолжительность : 1 ч. 28 м.
Вид битрейта : Постоянный
Битрейт : 1510 Кбит/сек
Каналы : 6 каналов
Расположение каналов : Front: L C R, Side: L R, LFE
Частота : 48,0 КГц
Битовая глубина : 24 бит
Метод сжатия : С потерями
Размер потока : 954 Мбайт (17%)
Язык : English
Default : Нет
Forced : Нет

Текст #1
Идентификатор : 8
Формат : UTF-8
Идентификатор кодека : S_TEXT/UTF8
Идентификатор кодека/Информация : UTF-8 Plain Text
Заголовок : На непереведённые места
Язык : Russian
Default : Да
Forced : Нет

Текст #2
Идентификатор : 9
Формат : UTF-8
Идентификатор кодека : S_TEXT/UTF8
Идентификатор кодека/Информация : UTF-8 Plain Text
Язык : Russian
Default : Нет
Forced : Нет

Текст #3
Идентификатор : 10
Формат : UTF-8
Идентификатор кодека : S_TEXT/UTF8
Идентификатор кодека/Информация : UTF-8 Plain Text
Язык : English
Default : Нет
Forced : Нет



   Похожие торренты   Торрент   Размер 
В этой теме нет новых непрочитанных сообщений. Гарольд и Кумар уходят в отрыв / Harold & Kumar Go to White Castle [Unrated] (2004) BDRip-AVC

3 | 2

1.57 ГБ

В этой теме нет новых непрочитанных сообщений. Гарольд и Кумар уходят в отрыв / Harold & Kumar Go to White Castle [Unrated] (2004) BDRip от HQ-ViDEO

20 | 4

1.46 ГБ

В этой теме нет новых непрочитанных сообщений. Гарольд и Кумар уходят в отрыв / Harold & Kumar Go to White Castle (2004) BDRip от HQCLUB | Расширенная версия / Unrated Cut

43 | 5

1.45 ГБ

В этой теме нет новых непрочитанных сообщений. Гарольд и Кумар уходят в отрыв / Harold & Kumar Go to White Castle (2004) BDRip

29 | 3

2.18 ГБ

В этой теме нет новых непрочитанных сообщений. Гарольд и Кумар уходят в отрыв / Harold & Kumar Go to White Castle (2004) BDRemux

0 | 3

24.66 ГБ

В этой теме нет новых непрочитанных сообщений. Гарольд и Кумар уходят в отрыв / Harold and Kumar Go to White Castle (2004) BDRip 720p от Leonardo and Scarabey | Расширенная версия

128 | 19

2.42 ГБ

В этой теме нет новых непрочитанных сообщений. Гарольд и Кумар уходят в отрыв / Harold & Kumar Go to White Castle (2004) HDRip от Scarabey | Расширенная версия

49 | 5

1.45 ГБ




Вы не можете начинать темы
Вы не можете отвечать на сообщения
Вы не можете редактировать свои сообщения
Вы не можете удалять свои сообщения
Вы не можете добавлять вложения

Перейти:  
Для Мосгорсуда, Роскомнадзора и рекламодателей: mosgorsud-torrent[собачка]yandex.ru
 Вход
ppkBB3cker v.2 © 2008-2014 @ PPK
[ Time : 0.062s | 18 Queries | GZIP : Off ]

cron