img image001 image001 image001 image001 image001 image001 image001 image001 image001 image001 image001 image001 image001 image001 image001 image001
Planets Sun Sun Sun
Статистика раздачи
Автор: Nickolas3434 | Размер: 4.02 ГБ | Добавлен: 04 окт 2014
Раздают: 33    Качают: 10
Скачать торрент
Скачать торрент
Описание торрента

СообщениеДобавлено: 04 окт 2014 

Информация о фильме
Название: Детская игра
Оригинальное название: Child's Play
Год выхода: 1972
Жанр: триллер, драма, мистика
Режиссер: Сидни Люмет / Sidney Lumet
В ролях: Бо Бриджес, Джеймс Мэйсон, Роберт Престон, Рон Вейэнд, Чарльз Уайт, Дэвид Роундс

О фильме:
Молодой учитель физкультуры Джозеф Доббс устраивается на работу в частную школу для мальчиков. Вскоре он замечает, что ученики ведут себя слишком агрессивно. Их детские игры не похожи на простую забаву, а школьные розыгрыши жестоки и кровавы. Доббс и большинство преподавателей склонны думать, что виной тому является излишняя строгость и требовательность учителя латыни: ведь акты насилия происходят исключительно после его уроков над теми, кто успешно выполнил задание. Но так ли это на самом деле?

Страна: США
Студия: Paramount Pictures
Продолжительность: 01:40:22.016
Перевод: Профессиональный (двухголосый закадровый) НТВ+

Файл
Кодек: h.264
Качество: BDRip 720p
Видео: 1280x720 (16:9), 23.976 fps, AVC, ~5223 Kbps, 0.236 bits/pixel
Звук:
Русский, 48.0 KHz, AC3, 1 ch, 128 Kbps
Английский, 48.0 KHz, AC3, 1 ch, 384 Kbps
Субтитры: нет

Общее
Уникальный идентификатор : 202991869863895645329959313981693922157 (0x98B6CFE369D5ADACB933160112928B6D)
Полное имя : E:FilmsDetskaya _igra.1972.BDRip720p.mkv
Формат : Matroska
Версия формата : Version 4 / Version 2
Размер файла : 4,02 Гбайт
Продолжительность : 1 ч. 40 м.
Общий поток : 5734 Кбит/сек
Дата кодирования : UTC 2014-10-04 16:50:29
Программа кодирования : mkvmerge v7.2.0 ('On Every Street') 64bit built on Sep 13 2014 15:52:10
Библиотека кодирования : libebml v1.3.0 + libmatroska v1.4.1
DURATION : 01:40:22.016000000
NUMBER_OF_FRAMES : 188188
NUMBER_OF_BYTES : 289056768
_STATISTICS_WRITING_APP : mkvmerge v7.2.0 ('On Every Street') 64bit built on Sep 13 2014 15:52:10
_STATISTICS_WRITING_DATE_UTC : 2014-10-04 16:50:29
_STATISTICS_TAGS : BPS DURATION NUMBER_OF_FRAMES NUMBER_OF_BYTES

Видео
Идентификатор : 1
Формат : AVC
Формат/Информация : Advanced Video Codec
Профиль формата : High@L4.1
Параметр CABAC формата : Да
Параметр ReFrames формата : 9 кадров
Идентификатор кодека : V_MPEG4/ISO/AVC
Продолжительность : 1 ч. 40 м.
Битрейт : 5223 Кбит/сек
Ширина : 1280 пикселей
Высота : 720 пикселей
Соотношение сторон : 16:9
Режим частоты кадров : Постоянный
Частота кадров : 23,976 кадра/сек
Цветовое пространство : YUV
Субдискретизация насыщенности : 4:2:0
Битовая глубина : 8 бит
Тип развёртки : Прогрессивная
Бит/(Пиксели*Кадры) : 0.236
Размер потока : 3,58 Гбайт (89%)
Библиотека кодирования : x264 core 142 r2431 ac76440
Настройки программы : cabac=1 / ref=9 / deblock=1:-3:-3 / analyse=0x3:0x133 / me=umh / subme=10 / psy=1 / psy_rd=1.10:0.10 / mixed_ref=1 / me_range=32 / chroma_me=1 / trellis=2 / 8x8dct=1 / cqm=0 / deadzone=21,11 / fast_pskip=0 / chroma_qp_offset=-3 / threads=8 / lookahead_threads=2 / sliced_threads=0 / nr=0 / decimate=0 / interlaced=0 / bluray_compat=0 / constrained_intra=0 / bframes=16 / b_pyramid=2 / b_adapt=2 / b_bias=0 / direct=3 / weightb=1 / open_gop=0 / weightp=2 / keyint=240 / keyint_min=23 / scenecut=60 / intra_refresh=0 / rc_lookahead=60 / rc=2pass / mbtree=0 / bitrate=5223 / ratetol=1.0 / qcomp=0.60 / qpmin=0 / qpmax=69 / qpstep=4 / cplxblur=20.0 / qblur=0.5 / vbv_maxrate=50000 / vbv_bufsize=62500 / nal_hrd=none / filler=0 / ip_ratio=1.40 / pb_ratio=1.30 / aq=1:1.00
Default : Нет
Forced : Нет
Основные цвета : BT.709
Характеристики трансфера : BT.709
Коэффициенты матрицы : BT.709
DURATION : 01:40:21.015000000
NUMBER_OF_FRAMES : 144360
NUMBER_OF_BYTES : 3929577642
_STATISTICS_WRITING_APP : mkvmerge v7.2.0 ('On Every Street') 64bit built on Sep 13 2014 15:52:10
_STATISTICS_WRITING_DATE_UTC : 2014-10-04 16:50:29
_STATISTICS_TAGS : BPS DURATION NUMBER_OF_FRAMES NUMBER_OF_BYTES

Аудио #1
Идентификатор : 2
Формат : AC-3
Формат/Информация : Audio Coding 3
Расширение режима : CM (complete main)
Параметр Endianness формата : Big
Идентификатор кодека : A_AC3
Продолжительность : 1 ч. 40 м.
Вид битрейта : Постоянный
Битрейт : 128 Кбит/сек
Каналы : 1 канал
Расположение каналов : Front: C
Частота : 48,0 КГц
Битовая глубина : 16 бит
Метод сжатия : С потерями
Размер потока : 91,9 Мбайт (2%)
Язык : Russian
Default : Да
Forced : Нет

Аудио #2
Идентификатор : 3
Формат : AC-3
Формат/Информация : Audio Coding 3
Расширение режима : CM (complete main)
Параметр Endianness формата : Big
Идентификатор кодека : A_AC3
Продолжительность : 1 ч. 40 м.
Вид битрейта : Постоянный
Битрейт : 384 Кбит/сек
Каналы : 1 канал
Расположение каналов : Front: C
Частота : 48,0 КГц
Битовая глубина : 16 бит
Метод сжатия : С потерями
Размер потока : 276 Мбайт (7%)
Язык : English
Default : Нет
Forced : Нет

Меню
00:00:00.000 : en:00:00:00.000
00:11:24.267 : en:00:11:24.267
00:23:01.171 : en:00:23:01.171
00:35:57.030 : en:00:35:57.030
00:47:26.385 : en:00:47:26.385
00:55:21.276 : en:00:55:21.276
01:11:48.221 : en:01:11:48.221
01:25:34.588 : en:01:25:34.588


frame I:750 Avg QP:17.69 size: 95063
frame P:22265 Avg QP:19.98 size: 44625
frame B:121345 Avg QP:22.03 size: 23608


Исходный Blu ray
http://www.blu-ray.com/movies/Childs-Play-Blu-ray/47234/
BDRip 720p
Blu Ray


Релиз от: Temperest



   Похожие торренты   Торрент   Размер 
В этой теме нет новых непрочитанных сообщений. Детская игра / Child's Play (1972) BDRip 720p от Temperest

0 | 7

5.27 ГБ

В этой теме нет новых непрочитанных сообщений. Детские игры 2 / Детская игра 2 / Child's Play 2 (1990) HDTVRip-AVC 720p от HAZARD'A

2 | 2

2.64 ГБ

В этой теме нет новых непрочитанных сообщений. Чаки: Детская игра / Child's Play (1988) DVDRip

8 | 48

668.06 МБ

В этой теме нет новых непрочитанных сообщений. Чаки: Детская игра 3 / Child's Play 3 Look Who`s Stalking (1991) DVDRip

6 | 45

701.61 МБ

В этой теме нет новых непрочитанных сообщений. Чаки: Детская игра / Child's Play (Антология) (1988-2004) DVDRip

61 | 48

3.53 ГБ

В этой теме нет новых непрочитанных сообщений. Чаки: Детская игра 2 / Child's Play 2 Chucky's Back (1990) DVDRip

10 | 44

685.11 МБ

В этой теме нет новых непрочитанных сообщений. Детские игры 2 / Child’s Play 2 (1990) BDRip 720p | P1, A

5 | 7

2.83 ГБ




Вы не можете начинать темы
Вы не можете отвечать на сообщения
Вы не можете редактировать свои сообщения
Вы не можете удалять свои сообщения
Вы не можете добавлять вложения

Перейти:  
Для Мосгорсуда, Роскомнадзора и рекламодателей: mosgorsud-torrent[собачка]yandex.ru
 Вход
ppkBB3cker v.2 © 2008-2014 @ PPK
[ Time : 0.070s | 18 Queries | GZIP : Off ]

cron